Скачать через торрент Хищник: Смерть Predator: The Quietus Фильм бесплатно в хорошем качестве torrent

Скачивайте на UnionPeer.org фильмы через торрент без регистрации. Новинки кино в хорошем качестве через торрент. На UnionPeer.org можно скачать через торрент фильмы 2014 и 2015 годов. Самые новые фильмы.

Скачать торрент Хищник: Смерть Predator: The Quietus бесплатно через .torrent фильм мультфильм сериал

Статистика раздачи
Размер:  1.45 GB   |    Зарегистрирован:  5 лет 3 месяца   |    .torrent скачан:  22 раза   |   
Раздают:  1  
   
загрузка...
 
Автор Сообщение

Galfimbul

avatar Galfimbul


Хищник: Смерть / Predator: The Quietus

Страна: Великобритания
Жанр: ужасы
Год выпуска: 1988
Продолжительность: 01:27:21

Перевод: Профессиональный (двухголосый закадровый)
Cубтитры: нет
Режиссер: Лесли МакКарти / Leslie McCarthy

В ролях: Корделия Рош (Келли О''Нил), Клифф Туэмлоу (Дэниел Кейн), Дэррил Марчант (Уилбур Следж), Марк Говер (Дэвид), Пэдди Уорд (Руни) и другие

Описание: Необъяснимое исчезновение влюбленных подростков и ребенка, а также брутальное уничтожение домашних животных, становятся главной темой международных СМИ.
Редактор журнала Нью-Йорк Инквайер, Гарри Голдберг, постоянно находящийся в поисках сенсационных историй, поручает расследование загадочных событий внештатной журналистке Келли О`Нил. Девушка отправляется на болота...

Доп. информация: За предоставленный рип благодарим Ledy_X
"Спасибы" просьба ПИСАТЬ в теме, тем самым вы продлеваете жизнь раздаче.

Релиз

Качество видео: HDTVRip [Исходник 1080i]
Формат видео: AVI

Видео: 720x400 (1.80:1), 25 fps, XviD build 50 ~2169 kbps avg, 0.30 bit/pixel
Аудио: 48 kHz, AC3 Dolby Digital, 2/0 (L,R) ch, ~192 kbps
Хищник - Смерть - Predator The Quietus [Rip by Ledy_X].avi
Format : AVI
Format/Info : Audio Video Interleave
File size : 1.45 GiB
Duration : 1h 27mn
Overall bit rate : 2 372 Kbps
Movie name : Хищник - Смерть - Predator The Quietus [Rip by Ledy_X]
Director : Rip by Ledy_X
Writing application : VirtualDubMod 1.5.10.3 | www.virtualdub-fr.org || (build 2550/release)
Copyright : Edich2
Comment : RuTracker.org

Video
ID : 0
Format : MPEG-4 Visual
Format profile : Advanced Simple@L5
Format settings, BVOP : 2
Format settings, QPel : No
Format settings, GMC : No warppoints
Format settings, Matrix : Custom
Codec ID : XVID
Codec ID/Hint : XviD
Duration : 1h 27mn
Bit rate : 2 170 Kbps
Width : 720 pixels
Height : 400 pixels
Display aspect ratio : 16:9
Frame rate : 25.000 fps
Color space : YUV
Chroma subsampling : 4:2:0
Bit depth : 8 bits
Scan type : Progressive
Compression mode : Lossy
Bits/(Pixel*Frame) : 0.301
Stream size : 1.32 GiB (91%)
Writing library : XviD 1.2.1 (UTC 2008-12-04)

Audio
ID : 1
Format : AC-3
Format/Info : Audio Coding 3
Mode extension : CM (complete main)
Format settings, Endianness : Big
Codec ID : 2000
Duration : 1h 27mn
Bit rate mode : Constant
Bit rate : 192 Kbps
Channel(s) : 2 channels
Channel positions : Front: L R
Sampling rate : 48.0 KHz
Bit depth : 16 bits
Compression mode : Lossy
Stream size : 120 MiB (8%)
Alignment : Split accross interleaves
Interleave, duration : 40 ms (1.00 video frame)
Interleave, preload duration : 500 ms


Трекер:  [ 25-Авг-2013 12:59 ]

  

Скачать .torrent

Размер .torrent файла 15 KB


Размер: 1.45 GB
Хэш (hash) релиза: 076aa7258473c5ea46800baee8df9eea35e377f7
Подписка на обновления:

Торренты, похожие на Хищник: Смерть Predator: The Quietus скачать торрент

Форум Название Автор Размер S L Добавлен
Зарубежные фильмы до 2016 ·· Хищник: Смерть / Predator: The Quietus (Лесли МакКарти / Leslie McCarthy) [1988, Великобритания, ужасы, TVRip] DVO (НТВ+) Galfimbul 41961697283.91 GB 0 0 1376405819

17:56

13-Авг-13

Еще никто не оставлял запись к записи скачать торрент Хищник: Смерть Predator: The Quietus . Будь первым!

!Обратная связь