Скачать через торрент Хищник: Смерть Predator: The Quietus Фильм бесплатно в хорошем качестве torrent

Скачивайте на UnionPeer.org фильмы через торрент без регистрации. Новинки кино в хорошем качестве через торрент. На UnionPeer.org можно скачать через торрент фильмы 2014 и 2015 годов. Самые новые фильмы.

Скачать торрент Хищник: Смерть Predator: The Quietus бесплатно через .torrent фильм мультфильм сериал

Статистика раздачи
Размер:  3.91 GB   |    Зарегистрирован:  5 лет 3 месяца   |    .torrent скачан:  10 раз   |   
Раздают:  1  
   
загрузка...
 
Автор Сообщение

Galfimbul

avatar Galfimbul


Хищник: Смерть / Predator: The Quietus

Страна: Великобритания
Жанр: ужасы
Год выпуска: 1988
Продолжительность: 01:27:07

Перевод: Профессиональный (двухголосый закадровый) НТВ+
Cубтитры: нет
Режиссер: Лесли МакКарти / Leslie McCarthy

В ролях:
Корделия Рош (Келли О''Нил), Клифф Туэмлоу (Дэниел Кейн), Дэррил Марчант (Уилбур Следж), Марк Говер (Дэвид), Пэдди Уорд (Руни) и другие

Описание:
Необъяснимое исчезновение влюбленных подростков и ребенка, а также брутальное уничтожение домашних животных, становятся главной темой международных СМИ.
Редактор журнала Нью-Йорк Инквайер, Гарри Голдберг, постоянно находящийся в поисках сенсационных историй, поручает расследование загадочных событий внештатной журналистке Келли О`Нил. Девушка отправляется на болота...

Доп. информация:
сценарий - Лесли МакКарти, Cliff Twemlow
продюсеры - Лесли МакКарти, Поли Пул, Cliff Twemlow, ...
оператор - Дэвид Тэттерсолл
композитор - Крис Смит
монтаж - Ashwell Kingston

Сэмпл: http://www.sendspace.com/file/nrldwk

Качество видео: TVRip
Формат видео: MPEG-PS

Видео: MPEG2 Video, 720x576 (4:3) 25.00fps, ~6144, 0.593 bit/pixel
Аудио: MPEG Audio, 48000Hz, 2/0 (L,R) ch, 192 Kbps
Полное имя : G:\DVD\Хищник - Смерть (1988)\Predator The Quietus.mpg
Формат : MPEG-PS
Размер файла : 3,91 Гбайт
Продолжительность : 1 ч. 27 м.
Общий поток : 6421 Кбит/сек

Видео
Идентификатор : 224 (0xE0)
Формат : MPEG Video
Версия формата : Version 2
Профиль формата : Main@Main
Параметр BVOP формата : Да
Параметр матрицы формата : По умолчанию
Продолжительность : 1 ч. 27 м.
Вид битрейта : Переменный
Битрейт : 6144 Кбит/сек
Ширина : 720 пикселей
Высота : 576 пикселей
Соотношение сторон : 4:3
Частота кадров : 25,000 кадров/сек
Стандарт вещания : PAL
Цветовое пространство : YUV
Субдискретизация насыщенности : 4:2:0
Битовая глубина : 8 бит
Тип развёртки : Прогрессивная
Метод сжатия : С потерями
Бит/(Пиксели*Кадры) : 0.593
Размер потока : 3,71 Гбайт (95%)

Аудио
Идентификатор : 192 (0xC0)
Формат : MPEG Audio
Версия формата : Version 1
Профиль формата : Layer 2
Продолжительность : 1 ч. 27 м.
Вид битрейта : Постоянный
Битрейт : 192 Кбит/сек
Каналы : 2 канала
Частота : 48,0 КГц
Метод сжатия : С потерями
Размер потока : 120 Мбайт (3%)


Трекер:  [ 14-Авг-2013 11:22 ]

  

Скачать .torrent

Размер .torrent файла 20 KB


Размер: 3.91 GB
Хэш (hash) релиза: 61b3c603063a8d0852695ad3bf0be12862e504e2
Подписка на обновления:

Торренты, похожие на Хищник: Смерть Predator: The Quietus скачать торрент

Форум Название Автор Размер S L Добавлен
Зарубежные фильмы до 2016 ·· Хищник: Смерть / Predator: The Quietus (Лесли МакКарти / Leslie McCarthy) [1988, Великобритания, ужасы, HDTVRip] DVO Galfimbul 15538073601.45 GB 0 0 1377269678

17:54

23-Авг-13

bot

Топик был перенесен в форум Зарубежное кино до 2013

Перенес Galfimbul

Хотите добавить комментарий к записи скачать торрент Хищник: Смерть Predator: The Quietus

!Обратная связь