Скачать через торрент Хищник The Predator Фильм бесплатно в хорошем качестве torrent

Скачивайте на UnionPeer.org фильмы через торрент без регистрации. Новинки кино в хорошем качестве через торрент. На UnionPeer.org можно скачать через торрент фильмы 2014 и 2015 годов. Самые новые фильмы.

Скачать торрент Хищник The Predator бесплатно через .torrent фильм мультфильм сериал

Статистика раздачи
Размер:  747 MB   |    Зарегистрирован:  11 дней   |    .torrent скачан:  87 раз   |   
Раздают:  1  
   
загрузка...
 
Автор Сообщение

Galfimbul

avatar Galfimbul


Хищник /The Predator

Год выпуска: 2018
Жанр: Ужасы, фантастика, боевик, триллер, приключения
Режиссер: Шейн Блэк
В ролях: Бойд Холбрук, Треванте Роудс, Джейкоб Трамбле, Кигэн-Майкл Ки, Оливия Манн, Стерлинг К. Браун, Томас Джейн, Элфи Оуэн-Аллен, Августо Агилера, Джейк Бьюзи

О фильме: Главный герой, бывший морпех, обнаруживает злобную инопланетную расу на Земле, но никто не верит ему, что эти твари существуют. Его сын-аутист, которого все обижают в школе, становится ключевой фигурой в схватке с Хищниками, поскольку мальчик умеет невероятно быстро учить языки и, судя по всему, сможет понять пришельцев.



Страна: США, Канада
Студия: Twentieth Century Fox, Davis Entertainment, TSG Entertainment
Продолжительность: 01:47:37
Перевод: Профессиональный (многоголосый, закадровый) | HDRezka Studio
Субтитры: нет

Файл
Формат: avi
Качество: WEB-DLRip
Видео: XviD build 73, 688x288 (2.40:1), 23.976 fps, 839 Kbps (0.177 bit/pixel)
Звук: 48.0 kHz, MP3, 2/0 ch, 128 kbps
General
Complete name : D:RazdachiHishnik.2018.XviD.WEB-DLRip.745Mb.GeneralFilm.avi
Format : AVI
Format/Info : Audio Video Interleave
File size : 747 MiB
Duration : 1 h 46 min
Overall bit rate : 976 kb/s
Writing application : VirtualDubMod 1.5.10.3 | www.virtualdub-fr.org || (build 2550/release)
Writing library : VirtualDubMod build 2550/release

Video
ID : 0
Format : MPEG-4 Visual
Format profile : Advanced Simple@L5
Format settings, BVOP : 1
Format settings, QPel : No
Format settings, GMC : No warppoints
Format settings, Matrix : Custom
Codec ID : XVID
Codec ID/Hint : XviD
Duration : 1 h 46 min
Bit rate : 839 kb/s
Width : 688 pixels
Height : 288 pixels
Display aspect ratio : 2.40:1
Frame rate : 23.976 (24000/1001) FPS
Color space : YUV
Chroma subsampling : 4:2:0
Bit depth : 8 bits
Scan type : Progressive
Compression mode : Lossy
Bits/(Pixel*Frame) : 0.177
Stream size : 642 MiB (86%)
Writing library : XviD 73

Audio
ID : 1
Format : MPEG Audio
Format version : Version 1
Format profile : Layer 3
Codec ID : 55
Codec ID/Hint : MP3
Duration : 1 h 46 min
Bit rate mode : Constant
Bit rate : 128 kb/s
Channel(s) : 2 channels
Sampling rate : 48.0 kHz
Compression mode : Lossy
Stream size : 97.8 MiB (13%)
Alignment : Aligned on interleaves
Interleave, duration : 42 ms (1.00 video frame)
Interleave, preload duratio : 504 ms
Writing library : LAME3.99r
Encoding settings : -m s -V 4 -q 2 -lowpass 17 -b 128
Релиз от:
Источник http://BlaTor.org

Трекер:  [ 29-Ноя-2018 06:10 ]

  

Скачать .torrent

Размер .torrent файла 15 KB


Размер: 747 MB
Хэш (hash) релиза: 70c438b45150626ba1d62b5b7b59d92cc1c74350
Подписка на обновления:

Торренты, похожие на Хищник The Predator скачать торрент

Форум Название Автор Размер S L Добавлен
Зарубежные фильмы 2016-2018 (Новинки зарубежного кино) ·%· Хищник / The Predator (2018) BDRip 1080p от селезень | D, P | iTunes Galfimbul 1274451263411.87 GB 0 0 1544389902

00:11

10-Дек-18

Зарубежные фильмы 2016-2018 (Новинки зарубежного кино) ·%· Хищник / The Predator (2018) HDRip-AVC от qusi555 | iTunes Galfimbul 31204687992.91 GB 0 0 1544347811

12:30

9-Дек-18

Зарубежные фильмы 2016-2018 (Новинки зарубежного кино) ·%· Хищник / The Predator (2018) HDRip | КПК | iTunes Galfimbul 426149580406 MB 0 0 1544344210

11:30

9-Дек-18

Зарубежные фильмы 2016-2018 (Новинки зарубежного кино) ·%· Хищник / The Predator (2018) HDRip-AVC от qusi555 | iTunes Galfimbul 15750738951.47 GB 0 0 1544337627

09:40

9-Дек-18

Зарубежные фильмы 2016-2018 (Новинки зарубежного кино) ·%· Хищник / The Predator (2018) BDRip 720p от селезень | D, P | iTunes Galfimbul 69941982866.51 GB 0 0 1544284836

19:00

8-Дек-18

Зарубежные фильмы 2016-2018 (Новинки зарубежного кино) ·%· Хищник / The Predator (2018) WEB-DLRip от MegaPeer | iTunes Galfimbul 791610757755 MB 0 0 1544254816

10:40

8-Дек-18

Зарубежные фильмы 2016-2018 (Новинки зарубежного кино) ·%· Хищник / The Predator (2018) HDRip | iTunes Galfimbul 14672834561.37 GB 0 0 1544133610

01:00

7-Дек-18

Зарубежные фильмы 2016-2018 (Новинки зарубежного кино) ·%· Хищник / The Predator (2018) WEB-DL 720p от Scarabey | HDRezka Studio Galfimbul 33991958453.17 GB 0 0 1543654264

11:51

1-Дек-18

Зарубежные фильмы 2016-2018 (Новинки зарубежного кино) ·%· Хищник / The Predator (2018) WEB-DL 1080p от OlLanDGroup | HDRezka Studio Galfimbul 41411348663.86 GB 0 0 1543407664

15:21

28-Ноя-18

Зарубежные фильмы 2016-2018 (Новинки зарубежного кино) ·%· Хищник / The Predator (2018) WEB-DLRip от MegaPeer | HDRezka Studio Galfimbul 15694991361.46 GB 0 0 1543396898

12:21

28-Ноя-18

Зарубежные фильмы 2016-2018 (Новинки зарубежного кино) ·%· Хищник / The Predator (2018) WEB-DLRip-AVC от OlLanDGroup | HDRezka Studio Galfimbul 18186009041.69 GB 0 0 1543372242

05:30

28-Ноя-18

Зарубежные фильмы 2016-2018 (Новинки зарубежного кино) ·%· Хищник / The Predator (2018) WEB-DL 1080p | HDRezka Studio Galfimbul 65075383146.06 GB 0 0 1543327232

17:00

27-Ноя-18

Зарубежные фильмы 2016-2018 (Новинки зарубежного кино) ·%· Хищник / The Predator (2018) WEBRip 1080p | HDRezka Studio Galfimbul 41044064623.82 GB 0 0 1542780019

09:00

21-Ноя-18

Зарубежные фильмы 2016-2018 (Новинки зарубежного кино) ·%· Хищник / The Predator (2018) WEBRip | HDrezka Studio Galfimbul 16294051841.52 GB 0 0 1542700308

10:51

20-Ноя-18

Зарубежные фильмы 2016-2018 (Новинки зарубежного кино) ·%· Хищник / The Predator (2018) WEBRip | D | звук с TS Galfimbul 16031887361.49 GB 0 0 1541933494

13:51

11-Ноя-18

Зарубежные фильмы до 2016 ·· Хищник: Смерть / Predator: The Quietus (Лесли МакКарти / Leslie McCarthy) [1988, Великобритания, ужасы, HDTVRip] DVO Galfimbul 15538073601.45 GB 0 0 1377269678

17:54

23-Авг-13

Зарубежные фильмы до 2016 ·· Хищник: Смерть / Predator: The Quietus (Лесли МакКарти / Leslie McCarthy) [1988, Великобритания, ужасы, TVRip] DVO (НТВ+) Galfimbul 41961697283.91 GB 0 0 1376405819

17:56

13-Авг-13

Еще никто не оставлял запись к записи скачать торрент Хищник The Predator . Будь первым!

!Обратная связь