Скачать через торрент Хищник The Predator Фильм бесплатно в хорошем качестве torrent

Скачивайте на UnionPeer.org фильмы через торрент без регистрации. Новинки кино в хорошем качестве через торрент. На UnionPeer.org можно скачать через торрент фильмы 2014 и 2015 годов. Самые новые фильмы.

Скачать торрент Хищник The Predator бесплатно через .torrent фильм мультфильм сериал

Статистика раздачи
Размер:  1.69 GB   |    Зарегистрирован:  12 дней   |    .torrent скачан:  80 раз   |   
Раздают:  1  
   
загрузка...
 
Автор Сообщение

Galfimbul

avatar Galfimbul




Хищник / The Predator
«You'll never see him coming»


Год выпуска: 2018
Страна: США, Канада
Производство: Twentieth Century Fox, Davis Entertainment, TSG Entertainment
Жанр: Ужасы
, фантастика, боевик, триллер, приключения

Режиссёр: Шейн Блэк
В ролях: Бойд Холбрук, Треванте Роудс, Джейкоб Трамбле, Кигэн-Майкл Ки, Оливия Манн, Стерлинг К. Браун, Томас Джейн, Элфи Оуэн-Аллен, Августо Агилера, Джейк Бьюзи

Перевод: Профессиональный (многоголосый, закадровый) | [HDRezka Studio]
Субтитры: Английские (полные)
Реклама: Отсутствует

Описание: Главный герой, бывший морпех, обнаруживает злобную инопланетную расу на Земле, но никто не верит ему, что эти твари существуют. Его сын-аутист, которого все обижают в школе, становится ключевой фигурой в схватке с Хищниками, поскольку мальчик умеет невероятно быстро учить языки и, судя по всему, сможет понять пришельцев.



Качество: WEB-DLRip-AVC | iTunes Version | The Predator 2018 1080p WEB-DL H264 AC3-EVO
Продолжительность: 01:47:37

Формат: MKV
Видео кодек: MPEG-4 AVC
Аудио кодек: AC3
Видео: 1024x428 (2.40:1), 23,976 fps, x264 ~1 679 kbps avg, 0.160 bit/pixel
Аудио #1: 48 kHz, AC3 Dolby Digital, 2 (L,R) ch, ~192.00 kbps avg | RUS (HDRezka Studio)
Аудио #2: 48 kHz, AC3 Dolby Digital, 3/2 (L,C,R,l,r) + LFE ch, ~384.00 kbps avg | ENG

Дата премьеры (мир): 7 сентября 2018
Дата премьеры (РФ): 13 сентября 2018, «Двадцатый Век Фокс СНГ»
Цифровой релиз: 7 декабря 2018, «Двадцатый Век Фокс СНГ»
Общее
Уникальный идентификатор : 37114950921925527918085308175834364251 (0x1BEC145C8109EADB947632AFEE03395B)
Полное имя : F:OlLanDGroupThe.Predator.2018.WEB-DLRip(AVC).OlLanDGroup.mkv
Формат : Matroska
Версия формата : Version 4 / Version 2
Размер файла : 1,69 Гбайт
Продолжительность : 1 ч. 47 м.
Общий поток : 2253 Кбит/сек
Название фильма : The.Predator.2018 #TorpedoUK#
Дата кодирования : UTC 2018-11-27 10:31:32
Программа кодирования : mkvmerge v25.0.0 ('Prog Noir') 64-bit
Библиотека кодирования : libebml v1.3.6 + libmatroska v1.4.9

Видео
Идентификатор : 1
Формат : AVC
Формат/Информация : Advanced Video Codec
Профиль формата : High@L4.1
Параметр CABAC формата : Да
Параметр ReFrames формата : 10 кадров
Идентификатор кодека : V_MPEG4/ISO/AVC
Продолжительность : 1 ч. 47 м.
Битрейт : 1679 Кбит/сек
Ширина : 1024 пикселя
Высота : 428 пикселей
Соотношение сторон : 2,40:1
Режим частоты кадров : Постоянный
Частота кадров : 23,976 (24000/1001) кадра/сек
Цветовое пространство : YUV
Субдискретизация насыщенности : 4:2:0
Битовая глубина : 8 бит
Тип развёртки : Прогрессивная
Бит/(Пиксели*Кадры) : 0.160
Размер потока : 1,26 Гбайт (75%)
Библиотека кодирования : x264 core 146 r2538 121396c
Настройки программы : cabac=1 / ref=10 / deblock=1:-2:-3 / analyse=0x3:0x113 / me=umh / subme=10 / psy=1 / psy_rd=0.95:0.07 / mixed_ref=1 / me_range=48 / chroma_me=1 / trellis=2 / 8x8dct=1 / cqm=0 / deadzone=21,11 / fast_pskip=1 / chroma_qp_offset=-3 / threads=6 / lookahead_threads=1 / sliced_threads=0 / nr=0 / decimate=1 / interlaced=0 / bluray_compat=0 / constrained_intra=0 / bframes=11 / b_pyramid=2 / b_adapt=2 / b_bias=0 / direct=3 / weightb=1 / open_gop=0 / weightp=2 / keyint=240 / keyint_min=23 / scenecut=40 / intra_refresh=0 / rc_lookahead=40 / rc=2pass / mbtree=0 / bitrate=1679 / ratetol=1.0 / qcomp=0.60 / qpmin=0 / qpmax=69 / qpstep=4 / cplxblur=20.0 / qblur=0.5 / vbv_maxrate=50000 / vbv_bufsize=62500 / nal_hrd=none / filler=0 / ip_ratio=1.40 / pb_ratio=1.30 / aq=1:1.00
Язык : English
Default : Да
Forced : Нет

Аудио #1
Идентификатор : 2
Формат : AC-3
Формат/Информация : Audio Coding 3
Расширение режима : CM (complete main)
Параметр Endianness формата : Big
Идентификатор кодека : A_AC3
Продолжительность : 1 ч. 46 м.
Вид битрейта : Постоянный
Битрейт : 192 Кбит/сек
Каналы : 2 канала
Расположение каналов : Front: L R
Частота : 48,0 КГц
Частота кадров : 31,250 кадров/сек (1536 spf)
Битовая глубина : 16 бит
Метод сжатия : С потерями
Размер потока : 147 Мбайт (8%)
Заголовок : MVO [HDRezka Studio]
Язык : Russian
Default : Да
Forced : Нет

Аудио #2
Идентификатор : 3
Формат : AC-3
Формат/Информация : Audio Coding 3
Расширение режима : CM (complete main)
Параметр Endianness формата : Big
Идентификатор кодека : A_AC3
Продолжительность : 1 ч. 46 м.
Вид битрейта : Постоянный
Битрейт : 384 Кбит/сек
Каналы : 6 каналов
Расположение каналов : Front: L C R, Side: L R, LFE
Частота : 48,0 КГц
Частота кадров : 31,250 кадров/сек (1536 spf)
Битовая глубина : 16 бит
Метод сжатия : С потерями
Размер потока : 294 Мбайт (17%)
Заголовок : [Original]
Язык : English
Default : Нет
Forced : Нет

Текст
Идентификатор : 4
Формат : UTF-8
Идентификатор кодека : S_TEXT/UTF8
Идентификатор кодека/Информация : UTF-8 Plain Text
Продолжительность : 1 ч. 38 м.
Битрейт : 49 бит/сек
Count of elements : 1366
Размер потока : 35,6 Кбайт (0%)
Заголовок : Full
Язык : English
Default : Нет
Forced : Нет

Меню
00:00:00.000 : en:Chapter 01
00:02:01.705 : en:Chapter 02
00:08:33.930 : en:Chapter 03
00:09:46.334 : en:Chapter 04
00:13:48.659 : en:Chapter 05
00:16:10.174 : en:Chapter 06
00:17:37.427 : en:Chapter 07
00:20:22.466 : en:Chapter 08
00:25:02.954 : en:Chapter 09
00:27:37.273 : en:Chapter 10
00:31:11.070 : en:Chapter 11
00:36:24.341 : en:Chapter 12
00:38:01.645 : en:Chapter 13
00:39:43.538 : en:Chapter 14
00:44:35.704 : en:Chapter 15
00:49:16.901 : en:Chapter 16
00:53:19.602 : en:Chapter 17
00:58:35.500 : en:Chapter 18
00:59:59.500 : en:Chapter 19
01:03:17.280 : en:Chapter 20
01:06:37.812 : en:Chapter 21
01:09:52.006 : en:Chapter 22
01:12:27.619 : en:Chapter 23
01:15:56.619 : en:Chapter 24
01:18:53.670 : en:Chapter 25
01:21:25.613 : en:Chapter 26
01:23:09.924 : en:Chapter 27
01:27:09.787 : en:Chapter 28
01:30:56.221 : en:Chapter 29
01:32:15.799 : en:Chapter 30
01:35:09.389 : en:Chapter 31
01:40:01.180 : en:Chapter 32
Источник http://BlaTor.org

Трекер:  [ 28-Ноя-2018 05:30 ]

  

Скачать .torrent

Размер .torrent файла 17 KB


Размер: 1.69 GB
Хэш (hash) релиза: 66de934caef33a54433c43d3675644278ddf85d9
Подписка на обновления:

Торренты, похожие на Хищник The Predator скачать торрент

Форум Название Автор Размер S L Добавлен
Зарубежные фильмы 2016-2018 (Новинки зарубежного кино) ·%· Хищник / The Predator (2018) BDRip 1080p от селезень | D, P | iTunes Galfimbul 1274451263411.87 GB 0 0 1544389902

00:11

10-Дек-18

Зарубежные фильмы 2016-2018 (Новинки зарубежного кино) ·%· Хищник / The Predator (2018) HDRip-AVC от qusi555 | iTunes Galfimbul 31204687992.91 GB 0 0 1544347811

12:30

9-Дек-18

Зарубежные фильмы 2016-2018 (Новинки зарубежного кино) ·%· Хищник / The Predator (2018) HDRip | КПК | iTunes Galfimbul 426149580406 MB 0 0 1544344210

11:30

9-Дек-18

Зарубежные фильмы 2016-2018 (Новинки зарубежного кино) ·%· Хищник / The Predator (2018) HDRip-AVC от qusi555 | iTunes Galfimbul 15750738951.47 GB 0 0 1544337627

09:40

9-Дек-18

Зарубежные фильмы 2016-2018 (Новинки зарубежного кино) ·%· Хищник / The Predator (2018) BDRip 720p от селезень | D, P | iTunes Galfimbul 69941982866.51 GB 0 0 1544284836

19:00

8-Дек-18

Зарубежные фильмы 2016-2018 (Новинки зарубежного кино) ·%· Хищник / The Predator (2018) WEB-DLRip от MegaPeer | iTunes Galfimbul 791610757755 MB 0 0 1544254816

10:40

8-Дек-18

Зарубежные фильмы 2016-2018 (Новинки зарубежного кино) ·%· Хищник / The Predator (2018) HDRip | iTunes Galfimbul 14672834561.37 GB 0 0 1544133610

01:00

7-Дек-18

Зарубежные фильмы 2016-2018 (Новинки зарубежного кино) ·%· Хищник / The Predator (2018) WEB-DL 720p от Scarabey | HDRezka Studio Galfimbul 33991958453.17 GB 0 0 1543654264

11:51

1-Дек-18

Зарубежные фильмы 2016-2018 (Новинки зарубежного кино) ·%· Хищник / The Predator (2018) WEB-DLRip от GeneralFilm | HDRezka Studio Galfimbul 782821376747 MB 0 0 1543461081

06:11

29-Ноя-18

Зарубежные фильмы 2016-2018 (Новинки зарубежного кино) ·%· Хищник / The Predator (2018) WEB-DL 1080p от OlLanDGroup | HDRezka Studio Galfimbul 41411348663.86 GB 0 0 1543407664

15:21

28-Ноя-18

Зарубежные фильмы 2016-2018 (Новинки зарубежного кино) ·%· Хищник / The Predator (2018) WEB-DLRip от MegaPeer | HDRezka Studio Galfimbul 15694991361.46 GB 0 0 1543396898

12:21

28-Ноя-18

Зарубежные фильмы 2016-2018 (Новинки зарубежного кино) ·%· Хищник / The Predator (2018) WEB-DL 1080p | HDRezka Studio Galfimbul 65075383146.06 GB 0 0 1543327232

17:00

27-Ноя-18

Зарубежные фильмы 2016-2018 (Новинки зарубежного кино) ·%· Хищник / The Predator (2018) WEBRip 1080p | HDRezka Studio Galfimbul 41044064623.82 GB 0 0 1542780019

09:00

21-Ноя-18

Зарубежные фильмы 2016-2018 (Новинки зарубежного кино) ·%· Хищник / The Predator (2018) WEBRip | HDrezka Studio Galfimbul 16294051841.52 GB 0 0 1542700308

10:51

20-Ноя-18

Зарубежные фильмы 2016-2018 (Новинки зарубежного кино) ·%· Хищник / The Predator (2018) WEBRip | D | звук с TS Galfimbul 16031887361.49 GB 0 0 1541933494

13:51

11-Ноя-18

Зарубежные фильмы до 2016 ·· Хищник: Смерть / Predator: The Quietus (Лесли МакКарти / Leslie McCarthy) [1988, Великобритания, ужасы, HDTVRip] DVO Galfimbul 15538073601.45 GB 0 0 1377269678

17:54

23-Авг-13

Зарубежные фильмы до 2016 ·· Хищник: Смерть / Predator: The Quietus (Лесли МакКарти / Leslie McCarthy) [1988, Великобритания, ужасы, TVRip] DVO (НТВ+) Galfimbul 41961697283.91 GB 0 0 1376405819

17:56

13-Авг-13

Еще никто не оставлял запись к записи скачать торрент Хищник The Predator . Будь первым!

!Обратная связь